<?xml version="1.0" standalone="no"?>
<!DOCTYPE svg PUBLIC "-//W3C//DTD SVG 1.1//EN" "http://www.w3.org/Graphics/SVG/1.1/DTD/svg11.dtd" >
<svg xmlns="http://www.w3.org/2000/svg">
<metadata>Generated by IcoMoon</metadata>
<defs>
<font id="fontello-social" horiz-adv-x="1024">
<font-face units-per-em="1024" ascent="860.16" descent="-163.84" />
<missing-glyph horiz-adv-x="1024" />
<glyph unicode="&#x20;" horiz-adv-x="0" d="" />
<glyph unicode="&#x23;" glyph-name="numbersign" horiz-adv-x="1064" d="M15.36 353.024h513.024v-513.024h-513.024v513.024zM536.576 350.976v513.024h512v-513.024h-512z" />
<glyph unicode="&#x30;" glyph-name="zero" horiz-adv-x="1323" d="M635.904 47.872q-68.608 0-116.224 35.328t-73.216 92.672q-63.488-131.072-207.872-131.072-97.28 0-160.768 49.152-62.464 49.152-62.464 141.312h121.856q5.12-40.96 29.696-65.536t66.56-24.576q48.128 0 77.824 33.28t29.696 83.456q0 49.152-28.672 80.896t-76.8 31.744q-38.912 0-66.56-24.576-28.672-25.6-52.224-25.6-45.056 0-81.92 2.048l28.672 164.864q24.576 135.168 29.696 167.936h337.92v-100.352h-248.832q-13.312-68.608-24.576-137.216h3.072q15.36 19.456 49.664 31.744t69.12 12.288q116.736 0 163.84-105.472 22.528 58.368 71.168 94.72t116.224 36.352q45.056 0 89.6-18.432t71.168-44.032q24.576-23.552 64.512-67.584 2.048-3.072 6.144-7.168l7.168-7.168q8.192 10.24 22.528 25.6l18.432 20.48q4.096 5.12 13.824 14.848t18.944 17.92l24.576 19.456q55.296 45.056 135.168 45.056 91.136 0 147.968-61.952t56.832-155.136q0-96.256-56.32-159.744-57.344-64.512-150.528-64.512-118.784 0-231.424 134.144-72.704-72.704-82.944-79.872-4.096-3.072-17.408-11.264l-21.504-14.336q-45.056-29.696-111.616-29.696zM542.72 265.984q0-43.008 26.112-69.632t69.12-26.624q76.8 0 158.72 97.28l-29.696 29.696-19.456 20.48q-9.216 9.216-49.152 32.768-34.816 20.48-64.512 20.48-38.912 0-65.024-31.744t-26.112-72.704zM941.056 265.984q30.72-32.768 48.128-47.616t49.152-32.256q29.696-16.384 62.464-16.384 43.008 0 68.608 28.16t25.6 72.192-26.112 72.192-69.12 28.16q-44.032 0-88.064-33.792z" />
<glyph unicode="&#x38;" glyph-name="eight" d="M15.36 352q0 147.456 71.68 262.656t183.296 180.736q117.76 68.608 257.024 68.608 147.456 0 262.656-71.68t180.736-183.296q68.608-117.76 68.608-257.024 0-147.456-71.68-262.656t-183.296-180.736q-117.76-68.608-257.024-68.608-147.456 0-262.656 71.68t-180.736 183.296q-68.608 117.76-68.608 257.024zM147.456 352q0-40.96 12.288-59.392t41.984-23.552q40.96-1.024 87.040 40.96 96.256 84.992 69.632 296.96-2.048 16.384-2.048 17.408-4.096 8.192 0 9.728t13.312-1.536q97.28-25.6 184.32-101.376 73.728-63.488 171.008-197.632 41.984-58.368 90.112-78.848 57.344-19.456 77.824 13.312 20.48 31.744 20.48 83.968 0 117.76-62.464 212.992-50.176 75.776-133.632 124.416t-186.88 48.64q-69.632 0-128-22.528-80.896-28.672-143.36-91.648t-91.136-144.896q-2.048-15.36-9.216-28.672-12.288-52.224-11.264-98.304z" />
<glyph unicode="&#x3a;" glyph-name="colon" horiz-adv-x="885" d="M15.36-160l427.008 1024 427.008-1024h-377.856v138.24l174.080 87.040-13.312 56.32-160.768-80.896v68.608l100.352 53.248-14.336 58.368-86.016-46.080v89.088h-94.208v-160.768l-88.064 60.416-16.384-65.536 104.448-71.68v-186.368h-381.952z" />
<glyph unicode="&#x3b;" glyph-name="semicolon" horiz-adv-x="1180" d="M15.36 530.176q0 13.312 13.312 13.312h180.224v132.096q0 14.336 13.312 14.336h100.352v-526.336q0-14.336-12.288-14.336h-294.912v380.928zM195.584 234.24q13.312 0 13.312 14.336v210.944h-68.608q-13.312 0-13.312-14.336v-210.944h68.608zM357.376 530.176q0 13.312 13.312 13.312h100.352v-379.904q0-14.336-12.288-14.336h-101.376v380.928zM357.376 675.584q0 14.336 12.288 14.336h101.376v-70.656q0-14.336-12.288-14.336h-101.376v70.656zM509.952 530.176q0 13.312 13.312 13.312h294.912v-516.096q0-13.312-13.312-13.312h-294.912l1.024 70.656q0 14.336 12.288 14.336h180.224v50.176h-193.536v380.928zM691.2 234.24q12.288 0 12.288 14.336v210.944h-68.608q-12.288 0-12.288-14.336v-210.944h68.608zM870.4 99.072h180.224v50.176h-193.536v380.928q0 13.312 13.312 13.312h293.888v-516.096q0-13.312-12.288-13.312h-294.912v70.656q0 14.336 13.312 14.336zM968.704 234.24h68.608q13.312 0 13.312 14.336v210.944h-68.608q-13.312 0-13.312-14.336v-210.944z" />
<glyph unicode="&#x42;" glyph-name="B" horiz-adv-x="1051" d="M15.36 540.416q0 133.12 95.232 228.352t228.352 95.232h226.304q65.536-8.192 141.312-58.368 75.776-51.2 107.52-117.76 22.528-46.080 29.696-110.592 9.216-70.656 26.624-87.040 13.312-13.312 72.704-15.36t66.56-7.168l14.336-11.264 8.192-17.408 3.072-14.336-2.048-262.144q-1.024-133.12-95.232-228.352-93.184-94.208-227.328-94.208h-371.712q-134.144 0-228.352 94.208-95.232 95.232-95.232 228.352v377.856zM280.576 167.68q0-25.6 18.432-43.52t44.032-17.92h364.544q25.6 0 43.52 17.92t17.92 43.52-17.92 43.52-43.52 17.92h-364.544q-25.6 0-44.032-17.92t-18.432-43.52zM280.576 538.368q0-25.6 18.432-44.032t44.032-18.432h179.2q25.6 0 43.52 18.432t17.92 44.032-17.92 43.52-43.52 17.92h-179.2q-25.6 0-44.032-17.92t-18.432-43.52z" />
<glyph unicode="&#x4b;" glyph-name="K" horiz-adv-x="1143" d="M15.36-160v1024h263.168v-379.904h234.496l105.472 152.576 157.696 227.328h292.864l-335.872-488.448q0-13.312 98.304-146.432l197.632-262.144 98.304-126.976h-351.232l-292.864 409.6h-204.8v-409.6h-263.168z" />
<glyph unicode="&#x64;" glyph-name="d" horiz-adv-x="1079" d="M15.36 312.064l219.136 166.912-219.136 165.888 318.464 207.872 207.872-178.176 212.992 178.176 309.248-197.632-202.752-168.96 202.752-174.080-314.368-189.44-207.872 159.744-207.872-159.744zM233.472 55.040v58.368l96.256-56.32 207.872 158.72 1.024-1.024v-363.52zM238.592 481.024l301.056-189.44 303.104 200.704-301.056 173.056zM538.624-148.736l1.024 363.52 2.048 1.024 206.848-158.72 102.4 61.44v-64.512z" />
<glyph unicode="&#x65;" glyph-name="e" horiz-adv-x="1459" d="M518.144 133.888q-72.704-34.816-210.944-34.816-188.416 0-243.712 52.224-27.648 25.6-37.888 54.784t-10.24 79.36q0 79.872 38.912 115.712t121.856 51.2q55.296 9.216 131.072 9.216 92.16 0 151.552-13.312 38.912-7.168 59.392-18.432v-164.864h-300.032q0-75.776 37.888-93.184 20.48-9.216 51.2-9.216 87.040 0 87.040 62.464h123.904v-91.136zM400.384 320.256q0 61.44-37.888 73.728-20.48 7.168-55.296 7.168-64.512 0-78.848-30.72-10.24-22.528-10.24-50.176h182.272zM518.144 225.024h79.872q-2.048-52.224-75.776-89.088-2.048-2.048-4.096-2.048v91.136zM827.392 198.4q-3.072-71.68-26.624-112.64t-82.944-40.96q-65.536 0-93.184 51.2h-1.024v-43.008h-105.472v80.896q2.048 0 4.096 2.048 73.728 36.864 75.776 89.088h-79.872v39.936h82.944q1.024 8.192 1.024 23.552 0 58.368-18.944 89.6t-65.024 51.712v187.392h109.568v-207.872h2.048q32.768 45.056 90.112 45.056 44.032 0 70.656-26.624-40.96-28.672-40.96-104.448 0-106.496 77.824-124.928zM518.144 429.824q46.080-20.48 65.024-51.712t18.944-89.6q0-15.36-1.024-23.552h-82.944v164.864zM636.928 143.104q9.216-30.72 35.84-30.72 28.672 0 37.888 30.72t9.216 110.592v5.12q0 61.44-6.144 91.136-7.168 36.864-40.96 36.864t-39.936-38.912q-5.12-29.696-5.12-94.208 0-79.872 9.216-110.592zM790.528 427.776q17.408-19.456 26.624-54.272t10.752-56.32-0.512-65.536v-53.248q-77.824 18.432-77.824 124.928 0 75.776 40.96 104.448zM1065.984 203.52q0 6.144-2.048 36.864t-2.048 37.888v104.448l-109.568 223.232q-46.080 3.072-50.176 3.072-67.584 0-103.424-26.624-40.96-25.6-40.96-96.256h109.568q0 32.768 7.68 47.104t33.28 14.336q26.624 0 35.84-13.312t9.216-45.056v-31.744h-24.576q-99.328 0-138.24-29.696 17.408-19.456 26.624-54.272 4.096-15.36 6.144-25.6t3.072-22.528 1.024-17.408v-109.568q5.12-1.024 26.624-1.024 68.608 0 102.4 59.392h2.048l5.12-53.248h102.4zM857.088 328.448q-11.264 9.216 1.024 20.48 12.288 10.24 5.12 15.36-5.12 3.072 0.512 7.68t11.776 7.68 4.096 5.12q-5.12 2.048 18.432 7.168l21.504 3.072q2.048 0 17.408 0.512t16.384 0.512q0-6.144 0.512-23.040t0.512-27.136-1.536-23.040-4.608-19.968q-15.36-37.888-49.152-37.888-41.984 0-41.984 63.488zM925.696 659.2h157.696l102.4-237.568 111.616 237.568h146.432l-193.536-367.616v-194.56h-144.384v194.56l-44.032 91.136v93.184q0 62.464-24.576 92.16t-84.992 37.888zM952.32 605.952q60.416-8.192 84.992-37.888t24.576-92.16v-93.184z" />
<glyph unicode="&#x67;" glyph-name="g" horiz-adv-x="992" d="M232.448 154.368q83.968 0 151.040-44.032t67.072-113.664q0-65.536-63.488-110.592-64.512-46.080-154.624-46.080-91.136 0-153.6 46.080-63.488 46.080-63.488 110.592 0 86.016 102.4 133.12-26.624 40.96-26.624 76.8 0 39.936 28.672 75.776-38.912 23.552-64.512 63.488t-25.6 91.136q0 74.752 54.784 128.512t130.56 53.76q56.32 0 103.424-31.744h7.168q61.44 0 111.616 32.768v-117.76q-18.432-10.24-45.056-14.336 7.168-21.504 7.168-51.2 0-71.68-51.2-123.904t-121.856-56.32q-24.576-29.696-24.576-54.272 0-26.624 24.576-49.152 1.024 0 3.072 0.512t3.072 0.512zM212.992 520.96q-29.696 0-51.712-25.088t-22.016-56.832 22.016-56.832 51.712-25.088q30.72 0 52.224 24.576t21.504 57.344-21.504 57.344-52.224 24.576zM232.448 62.208q-34.816 0-62.464-17.92t-27.648-47.616q0-28.672 27.648-47.104t62.464-18.432 62.976 18.432 28.16 47.104q0 29.696-27.648 47.616t-63.488 17.92zM481.28 781.056q0 34.816 24.064 58.88t58.88 24.064 59.392-24.064 24.576-58.88-24.576-59.392-59.392-24.576-58.88 24.576-24.064 59.392zM500.736 609.024h137.216v-490.496h-137.216v490.496zM686.080 504.576h56.32v-291.84q9.216-74.752 93.184-101.376 15.36-5.12 31.744-7.168h20.48q22.528 0 46.592 7.168t33.28 17.408l7.168 9.216 2.048 101.376q-40.96-13.312-66.56-13.312-31.744 0-36.864 17.408l-4.096 13.312q0 3.072-1.024 4.096v243.712h93.184v104.448h-93.184v95.232h-125.952v-95.232h-56.32v-104.448z" />
<glyph unicode="&#x6b;" glyph-name="k" d="M15.36 283.392v137.216l3.072 60.416q3.072 61.44 6.144 63.488 5.12 4.096 14.336 53.248 9.216 52.224 24.576 57.344 16.384 5.12 36.864 47.104 21.504 43.008 51.2 49.152 149.504 112.64 364.544 112.64h16.384v-795.648h126.976v212.992q3.072-4.096 24.576-39.936l40.96-65.536 26.624-40.96q28.672-38.912 61.952-53.248t96.768-14.336h36.864v120.832q-47.104 0-64.512 7.168-19.456 8.192-43.008 41.984-16.384 20.48-64.512 102.4l175.104 243.712h-151.552l-139.264-193.536v463.872q138.24-23.552 243.712-102.4 49.152-36.864 88.064-96.256 16.384-25.6 24.576-57.344 16.384-57.344 18.432-95.232 1.024-8.192 2.048-21.504 3.072-45.056 3.072-60.416v-137.216l-3.072-60.416q-3.072-61.44-6.144-63.488-5.12-4.096-14.336-53.248-9.216-52.224-24.576-57.344-16.384-5.12-36.864-47.104-21.504-43.008-51.2-49.152-149.504-112.64-375.808-112.64t-375.808 112.64q-49.152 36.864-88.064 96.256-16.384 25.6-24.576 57.344-16.384 57.344-18.432 95.232-1.024 8.192-2.048 21.504-3.072 45.056-3.072 60.416zM98.304 130.816q67.584-68.608 196.608-68.608 81.92 0 141.312 41.984 58.368 40.96 58.368 120.832 0 47.104-16.896 83.456t-47.616 49.664q-56.32 25.6-119.808 28.672-64.512 4.096-64.512 43.008 0 48.128 71.68 47.104 57.344 0 89.088-29.696l79.872 79.872q-61.44 61.44-174.080 61.44-79.872 0-134.144-41.984-55.296-43.008-55.296-120.832 0-49.152 19.968-83.456t53.76-47.616q38.912-14.336 124.928-26.624 26.624-4.096 37.376-13.312t10.752-31.744q0-47.104-73.728-47.104-78.848 0-115.712 36.864z" />
<glyph unicode="&#x7e;" glyph-name="asciitilde" horiz-adv-x="711" d="M117.76 848.64l8.192-123.904h10.24l5.12 3.072q80.896 136.192 251.904 136.192 133.12 0 217.088-100.352 84.992-102.4 84.992-260.096 0-135.168-53.76-226.816t-152.064-132.608q-58.368-23.552-118.784-23.552-72.704 0-130.048 30.208t-87.040 80.384l-2.048 3.072h-11.264l-3.072-7.168v-387.072h-115.712v779.264q0 89.088-6.144 229.376h102.4zM137.216 425.728q0-31.744 6.144-56.32 18.432-67.584 73.728-113.664t131.072-46.080q108.544 0 168.448 81.92t59.904 205.824q0 115.712-60.416 195.584t-162.816 79.872q-76.8 0-133.12-48.128t-73.728-118.784q-9.216-33.792-9.216-54.272v-125.952z" />
<glyph unicode="&#xe1;" glyph-name="aacute" horiz-adv-x="1184" d="M93.184 688.896q52.224 83.968 98.304 116.736 37.888 27.648 113.152 46.080t138.752 6.144q52.224-9.216 84.992-32.768 39.936-27.648 64.512-58.368 37.888-49.152 52.224-74.752 45.056-82.944 71.68-148.48 2.048-7.168 13.312-31.744 6.144 41.984 58.368 192.512 49.152 144.384 68.608 148.48 93.184 21.504 148.48 0l16.384-16.384q-1.024-31.744-14.336-72.704-1.024-3.072-25.6-68.608l-163.84-449.536q-7.168-33.792 19.456-92.16 26.624-57.344 68.608-95.232 29.696-26.624 54.784-27.648t39.424 26.624q11.264 22.528 28.672 30.208t58.368 7.68q55.296 0 68.608-19.456 28.672-53.248-1.024-102.912t-79.872-86.528q-79.872-58.368-151.552-43.008-81.92 16.384-132.096 82.944-30.72 40.96-81.92 130.048-3.072-1.024-6.144-4.096-24.576-59.392-83.968-109.056t-129.024-76.288q-80.896-29.696-161.28-19.456t-140.8 54.272q-86.016 61.44-134.144 208.896-46.080 140.288-36.864 307.2 9.216 161.792 75.776 271.36zM173.056 429.824q-13.312-110.592 9.216-216.064 23.552-106.496 74.752-144.384 88.064-65.536 160.768-32.768l34.816 16.384q9.216 4.096 22.528 14.336t28.672 26.624q5.12 5.12 13.312 14.336t11.264 12.288 8.704 9.216 7.68 9.216l8.192 10.24 10.24 14.336 10.24 17.408 22.528 33.792 16.384 30.72 22.528 36.864q-37.888 160.768-65.536 228.352-75.776 177.152-206.848 158.72-57.344-8.192-82.432-21.504t-51.712-51.2q-41.984-57.344-55.296-166.912z" />
<glyph unicode="&#xf300;" glyph-name="uniF300" horiz-adv-x="973" d="M650.24 286.464q28.672 0 47.104-28.16t18.432-64-18.432-64-47.104-28.16q-30.72 0-49.152 28.16t-18.432 64 18.432 64 49.152 28.16zM486.4-47.36q-8.192 0-44.544 1.024t-43.52 1.024q-112.64 0-184.32 29.696-37.888 15.36-76.288 45.568t-60.928 62.976q-61.44 86.016-61.44 234.496 0 116.736 75.776 198.656-8.192 5.12-1.024 81.92t33.792 143.36q95.232-11.264 233.472-106.496 48.128 12.288 129.024 12.288 86.016 0 129.024-12.288 64.512 44.032 121.856 69.632 58.368 25.6 84.992 30.72l26.624 6.144q26.624-66.56 33.792-143.36t-1.024-81.92q75.776-81.92 75.776-198.656 0-207.872-126.976-301.056-37.888-26.624-68.608-40.448t-77.824-22.016q-54.272-9.216-109.568-9.216-7.168 0-43.52-1.024t-44.544-1.024zM488.448 358.144h-4.096q-21.504 0-87.040 4.608t-79.872 4.608q-78.848 3.072-121.856-35.84-53.248-47.104-53.248-122.88 0-126.976 86.016-167.936 84.992-40.96 256-40.96h4.096q171.008 0 257.024 40.96 87.040 40.96 87.040 167.936 0 56.32-34.816 101.888t-87.040 53.76q-37.888 6.144-115.712 0-78.848-6.144-106.496-6.144zM324.608 286.464q28.672 0 47.104-28.16t18.432-64-18.432-64-47.104-28.16q-30.72 0-49.152 28.16t-18.432 64 18.432 64 49.152 28.16z" />
<glyph unicode="&#xf303;" glyph-name="uniF303" horiz-adv-x="952" d="M216.064 556.8q83.968 0 142.336-59.904t58.368-144.896-59.392-144.384q-60.416-60.416-141.312-60.416t-141.312 60.416q-59.392 59.392-59.392 144.384t58.368 144.896 142.336 59.904zM736.256 147.2q-80.896 0-141.312 60.416-59.392 59.392-59.392 144.384t58.368 144.896 142.336 59.904 142.336-59.904 58.368-144.896-59.392-144.384q-60.416-60.416-141.312-60.416z" />
<glyph unicode="&#xf306;" glyph-name="uniF306" horiz-adv-x="953" d="M932.864 564.992q-31.744-190.464-175.104-359.424-144.384-171.008-250.88-242.688-33.792-19.456-62.976-19.968t-55.808 16.896-45.568 39.936-30.208 47.104q-14.336 28.672-80.384 244.224t-75.264 228.864q-27.648 20.48-83.968-16.384l-20.48-14.336-36.864 51.2q6.144 6.144 21.504 24.576l25.6 28.672q31.744 35.84 102.4 91.136 72.704 57.344 126.976 68.608 59.392 12.288 91.136-43.008 25.6-40.96 38.912-133.12 21.504-129.024 25.6-145.408 28.672-108.544 38.912-137.216 11.264-28.672 18.432-39.936 8.192-11.264 18.432-11.264 41.984 0 129.024 169.984 43.008 77.824 6.144 126.976t-114.688 2.048q23.552 130.048 143.36 192.512 106.496 55.296 186.368 8.192 81.92-48.128 59.392-178.176z" />
<glyph unicode="&#xf309;" glyph-name="uniF309" horiz-adv-x="973" d="M957.44 644.864q-37.888-57.344-96.256-100.352v-24.576q0-133.12-61.44-256-61.44-123.904-190.464-207.872-130.048-84.992-296.96-84.992-162.816 0-296.96 86.016 18.432-2.048 47.104-2.048 134.144 0 239.616 81.92-65.536 2.048-114.176 39.936t-66.048 95.232q9.216-4.096 34.816-4.096 26.624 0 51.2 6.144-64.512 13.312-109.056 66.048t-44.544 124.416v2.048q36.864-20.48 86.016-24.576-86.016 59.392-86.016 161.792 0 48.128 26.624 96.256 158.72-193.536 399.36-200.704-6.144 18.432-6.144 43.008 0 79.872 56.832 136.192t137.728 56.32q83.968 0 139.264-59.392 59.392 12.288 122.88 45.056-19.456-67.584-83.968-106.496 56.32 8.192 110.592 30.72z" />
<glyph unicode="&#xf30c;" glyph-name="uniF30C" horiz-adv-x="543" d="M527.36 653.056h-145.408q-16.384 0-26.624-16.896t-10.24-36.352v-104.448h182.272v-151.552h-182.272v-452.608h-174.080v452.608h-155.648v151.552h155.648v88.064q0 94.208 59.904 161.792t151.040 67.584h145.408v-159.744z" />
<glyph unicode="&#xf30f;" glyph-name="uniF30F" horiz-adv-x="1459" d="M424.432 412.199v-144.743h239.252c-9.584-62.142-72.248-182.026-239.252-182.026-143.973 0-261.534 119.363-261.534 266.449s117.561 266.452 261.534 266.452c82.077 0 136.716-34.961 168.046-64.988l114.451 110.303c-73.535 68.619-168.828 110.303-282.496 110.303-233.301-0.259-421.817-188.765-421.817-422.067 0-233.299 188.505-421.819 421.817-421.819 243.404 0 404.975 171.158 404.975 412.234 0 27.705-3.108 48.943-6.736 69.918l-398.237-0.010zM1328.388 424.371h-124.296v124.295h-124.295v-124.295h-124.296v-124.297h124.295v-124.295h124.295v124.295h124.297v124.297z" />
<glyph unicode="&#xf312;" glyph-name="uniF312" horiz-adv-x="827" d="M343.040 188.16q-24.576-126.976-59.392-216.064-31.744-82.944-98.304-132.096-10.24 122.88-5.12 171.008 2.048 28.672 9.216 64.512 18.432 98.304 49.152 207.872 17.408 60.416 24.576 101.376-24.576 52.224-19.456 118.784 5.12 62.464 48.128 107.52t102.4 21.504q73.728-28.672 31.744-157.696-27.648-87.040-32.768-105.472-15.36-51.2-4.096-92.16 10.24-38.912 64.512-50.176 73.728-15.36 126.464 40.448t73.216 132.608q21.504 82.944 11.264 166.912-11.264 87.040-55.296 131.072-62.464 65.536-154.624 71.68-98.304 6.144-172.032-36.352t-117.76-117.248q-47.104-78.848-32.768-174.080 5.12-23.552 22.528-53.248 21.504-36.864 22.528-52.736t-18.432-64q-149.504 35.84-143.36 235.52 5.12 141.312 107.52 239.616 102.4 97.28 238.592 114.688 167.936 18.432 296.96-58.368t147.456-224.256q26.624-180.224-67.584-324.608-93.184-144.384-258.048-132.096-23.552 2.048-43.008 9.216t-30.72 13.824-31.744 20.992q-23.552 16.384-31.744 21.504z" />
<glyph unicode="&#xf313;" glyph-name="uniF313" horiz-adv-x="812" d="M689.152 472.832h-58.368v32.768q-35.84-35.84-68.608-35.84-41.984 0-41.984 51.2v240.64h59.392v-221.184q0-19.456 15.872-19.456t35.328 22.528v218.112h58.368v-288.768zM388.096 768.768q35.84 0 59.392-19.968t23.552-54.784v-148.48q0-37.888-23.040-58.88t-62.976-20.992q-37.888 0-61.44 22.016t-23.552 58.88v148.48q0 35.84 25.088 54.784t62.976 18.944zM385.024 719.616q-9.216 0-16.384-6.144t-7.168-15.36v-157.696q0-23.552 23.552-23.552 25.6 0 25.6 23.552v157.696q0 8.192-8.192 14.848t-17.408 6.656zM235.52 864h67.584l-50.176-151.552q-1.024-2.048-11.776-31.744t-14.848-45.056v-162.816h-65.536v155.648q-1.024 8.192-27.648 77.824l-52.224 157.696h67.584l41.984-155.648h5.12zM793.6 48.896q-4.096-44.032-35.328-72.192t-78.336-30.208q-101.376-4.096-273.408-4.096-174.080 0-273.408 4.096-47.104 2.048-78.848 30.208t-34.816 72.192q-5.12 89.088-5.12 134.144t5.12 133.12q3.072 45.056 34.816 73.216t78.848 29.184q99.328 5.12 273.408 5.12t273.408-5.12q47.104-1.024 78.336-29.184t35.328-73.216q5.12-88.064 5.12-133.12t-5.12-134.144zM593.92 99.072q0-32.768 17.92-52.736t50.688-19.968q70.656 0 70.656 72.704v17.408h-48.128v-20.48q0-3.072-0.512-8.704t-2.048-8.192-3.584-5.632-6.144-4.608-9.216-1.536q-20.48 0-20.48 32.768v44.032h90.112v59.392q0 31.744-17.408 50.176t-49.152 18.432-52.224-19.456-20.48-49.152v-104.448zM557.056 210.688q0 58.368-45.056 58.368-23.552 0-43.008-21.504v101.376h-48.128v-316.416h48.128v18.432q21.504-20.48 45.056-20.48 43.008 0 43.008 51.2v129.024zM373.76 32.512v233.472h-46.080v-177.152q-15.36-17.408-28.672-17.408-12.288 0-12.288 15.36v179.2h-48.128v-196.608q0-39.936 33.792-39.936 26.624 0 55.296 28.672v-25.6h46.080zM239.616 302.848v46.080h-164.864v-46.080h55.296v-270.336h53.248v270.336h56.32zM685.056 179.968h-41.984v25.6q0 25.6 21.504 25.6 20.48 0 20.48-25.6v-25.6zM508.928 208.64v-122.88q0-18.432-16.384-18.432-13.312 0-23.552 9.216v146.432q9.216 9.216 20.48 9.216 19.456 0 19.456-23.552z" />
<glyph unicode="&#xf315;" glyph-name="uniF315" horiz-adv-x="604" d="M588.8-65.792q-99.328-53.248-212.992-53.248-60.416 0-112.64 16.384-52.224 19.456-83.968 47.104-35.84 30.72-47.104 65.536-14.336 31.744-14.336 98.304v329.728h-102.4v133.12q109.568 36.864 157.696 133.12 24.576 54.272 30.72 118.784h133.12v-237.568h221.184v-147.456h-221.184v-241.664q0-84.992 8.192-104.448 11.264-25.6 32.768-36.864 29.696-20.48 69.632-20.48 69.632 0 141.312 47.104v-147.456z" />
<glyph unicode="&#xf318;" glyph-name="uniF318" horiz-adv-x="952" d="M224.256 708.352q0-43.008-30.72-70.656t-75.776-27.648q-43.008 0-72.704 28.16t-29.696 70.144q0 44.032 29.184 71.168t75.264 27.136 74.24-27.136 30.208-71.168zM21.504 532.224h196.608v-632.832h-196.608v632.832zM334.848 329.472q0 100.352-4.096 202.752h169.984l10.24-88.064h4.096q61.44 102.4 194.56 102.4 110.592 0 168.96-73.728t58.368-198.656v-374.784h-196.608v350.208q0 137.216-100.352 137.216-70.656 0-100.352-73.728-6.144-12.288-6.144-49.152v-364.544h-198.656v430.080z" />
<glyph unicode="&#xf31b;" glyph-name="uniF31B" horiz-adv-x="973" d="M463.872 485.12q-49.152 87.040-124.928 197.632-19.456 29.696-24.576 33.792-81.92-39.936-140.8-113.664t-80.384-166.912q186.368 0 370.688 49.152zM529.408 354.048q-11.264 31.744-32.768 69.632-187.392-57.344-411.648-57.344v-14.336q0-153.6 102.4-268.288 9.216 15.36 13.312 21.504 43.008 63.488 105.472 121.856 37.888 35.84 96.256 70.144t112.64 52.736q7.168 4.096 14.336 4.096zM238.592 36.608l-8.192 6.144q6.144-6.144 8.192-6.144zM752.64 655.104q-117.76 100.352-266.24 100.352-50.176 0-94.208-12.288 80.896-106.496 149.504-233.472 142.336 54.272 208.896 143.36zM153.6 19.2q-138.24 138.24-138.24 332.8t138.24 332.8 332.8 138.24 332.8-138.24 138.24-332.8-138.24-332.8-332.8-138.24-332.8 138.24zM556.032 286.464q-221.184-75.776-315.392-247.808l-2.048-2.048q111.616-86.016 247.808-86.016 77.824 0 157.696 32.768-24.576 144.384-86.016 305.152zM599.040 390.912l10.24-20.48q112.64 13.312 235.52-6.144 35.84-6.144 43.008-8.192 0 142.336-90.112 251.904l-8.192-10.24q-18.432-23.552-69.632-64.512-65.536-51.2-147.456-84.992 14.336-28.672 26.624-57.344zM633.856 306.944q53.248-149.504 77.824-286.72 142.336 93.184 172.032 268.288-5.12 3.072-39.936 11.264-106.496 24.576-209.92 7.168z" />
<glyph unicode="&#xf31e;" glyph-name="uniF31E" d="M244.736 139.008q19.456 0 36.352 16.384t16.896 36.864v321.536q0 94.208 67.584 160.768 68.608 66.56 161.792 66.56t161.792-66.56q67.584-66.56 67.584-160.768v-61.44l-104.448-34.816-71.68 34.816v61.44q0 22.528-15.36 37.888t-37.888 15.36q-20.48 0-36.864-15.872t-16.384-37.376v-321.536q0-94.208-67.584-161.792t-161.792-67.584-161.792 67.584-67.584 161.792v135.168h176.128v-135.168q0-20.48 16.896-36.864t36.352-16.384zM865.28 327.424h174.080v-135.168q0-94.208-67.584-161.792t-161.792-67.584-161.792 67.584-67.584 161.792v137.216l71.68-32.768 104.448 32.768v-137.216q0-20.48 16.896-36.864t36.352-16.384q22.528 0 38.912 15.36t16.384 37.888v135.168z" />
<glyph unicode="&#xf321;" glyph-name="uniF321" d="M418.816 220.928l34.816-102.4q-65.536-53.248-172.032-53.248-109.568 0-187.392 74.752-78.848 75.776-78.848 203.776 0 132.096 81.92 214.016 80.896 80.896 192.512 80.896 113.664 0 171.008-46.080 56.32-45.056 93.184-162.816l36.864-118.784q49.152-149.504 206.848-149.504 122.88 0 122.88 61.44 0 55.296-79.872 73.728l-79.872 18.432q-137.216 35.84-137.216 155.648 0 91.136 59.392 129.024 60.416 38.912 149.504 38.912 188.416 0 202.752-149.504l-116.736-14.336q-7.168 71.68-92.16 71.68-83.968 0-83.968-63.488 0-51.2 67.584-67.584l75.776-16.384q153.6-36.864 153.6-169.984 0-163.84-243.712-163.84-139.264 0-208.896 54.272-70.656 54.272-102.4 152.576l-36.864 118.784q-4.096 10.24-9.216 26.112t-7.68 23.040-7.168 17.408-10.24 18.944-13.824 19.968q-32.768 44.032-105.472 44.032-65.536 0-115.712-47.104t-50.176-145.408q0-82.944 47.104-133.12 48.128-51.2 112.64-51.2 61.44 0 131.072 57.344z" />
<glyph unicode="&#xf328;" glyph-name="uniF328" horiz-adv-x="1014" d="M854.016 700.16q144.384-143.36 144.384-348.16 0-129.024-59.904-234.496t-153.088-168.96q-110.592 190.464-346.112 196.608-180.224 6.144-303.104-116.736-120.832 140.288-120.832 323.584 0 204.8 143.36 348.16t348.16 143.36q201.728 0 347.136-143.36zM736.256 218.88q-192.512 116.736-471.040 55.296-30.72-7.168-22.528-36.864 7.168-30.72 36.864-22.528 250.88 59.392 425.984-47.104 26.624-14.336 40.96 10.24 14.336 26.624-10.24 40.96zM793.6 368.384q-105.472 65.536-250.88 85.504t-293.888-19.968q-34.816-10.24-24.576-47.104 10.24-33.792 47.104-26.624 113.664 34.816 249.856 19.456t233.472-74.752q32.768-20.48 51.2 12.288 18.432 34.816-12.288 51.2zM873.472 476.928q20.48 38.912-16.384 63.488-130.048 75.776-321.536 91.136t-313.344-27.648q-16.384-3.072-27.136-19.968t-3.584-35.328q6.144-17.408 21.504-27.136t35.84-3.584q105.472 36.864 277.504 23.552 175.104-14.336 283.648-78.848 38.912-24.576 63.488 14.336zM437.248-2.304q134.144-5.12 190.464-120.832-59.392-16.384-120.832-16.384-128 0-239.616 63.488 67.584 74.752 169.984 73.728z" />
<glyph unicode="&#xf32d;" glyph-name="uniF32D" horiz-adv-x="911" d="M152.576-88.32q-56.32 0-96.768 40.96t-40.448 98.304v352.256h178.176q-4.096-28.672-4.096-51.2 0-109.568 77.824-187.392 78.848-78.848 188.416-78.848 108.544 0 187.392 78.848t78.848 187.392q0 26.624-6.144 51.2h180.224v-352.256q0-57.344-40.448-98.304t-96.768-40.96h-606.208zM758.784 792.32q56.32 0 96.768-39.936t40.448-97.28v-149.504h-223.232q-79.872 112.64-217.088 112.64-141.312 0-217.088-112.64h-223.232v149.504q0 57.344 40.448 97.28t96.768 39.936h606.208zM701.44 622.336q0-9.216 7.68-16.896t16.896-7.68h73.728q24.576 0 24.576 24.576v73.728q0 24.576-24.576 24.576h-73.728q-24.576 0-24.576-24.576v-73.728zM619.52 352q0-66.56-48.64-115.2t-115.2-48.64-115.2 48.64-48.64 115.2q0 68.608 48.128 116.224t115.712 47.616 115.712-47.616 48.128-116.224z" />
<glyph unicode="&#xf333;" glyph-name="uniF333" horiz-adv-x="815" d="M693.248 710.4q31.744 0 60.928-18.432t29.184-47.104q0-1.024 0.512-9.216t2.048-27.136 2.56-38.4q14.336-192.512 8.192-322.56-5.12-108.544-19.968-180.736t-51.712-123.392q-38.912-52.224-93.184-52.224-156.672 0-198.656 26.624-26.624 20.48-18.432 133.12 1.024 39.936 37.888 60.416 34.816 19.456 70.656 19.456l34.816-2.048-4.096-71.68q-16.384-2.048-38.912-2.048-19.456 0-24.576-26.624-4.096-37.888 40.96-43.008l88.064 4.096q38.912 5.12 28.672 139.264-4.096 30.72-53.248 39.936-70.656 10.24-98.304 17.408-46.080 13.312-74.752 66.56-9.216 17.408-11.264 17.408t-8.192-59.392-30.72-59.392q-46.080 0-142.336 15.36-97.28 15.36-117.76 35.84-33.792 34.816-63.488 152.576-28.672 115.712-28.672 154.624 0 34.816 59.392 30.72h118.784q79.872 0 79.872 73.728 0 8.192-1.024 56.832t-1.024 57.856q0 83.968 40.96 83.968 91.136 0 122.88-14.336 16.384-7.168 28.672-24.576t14.336-36.864l4.096-14.336zM683.008 368.384q-8.192 28.672-30.208 54.272t-49.664 25.6q-26.624 0-45.056-22.016t-22.528-48.64q-5.12-23.552 0-29.696 5.12-4.096 9.728-5.12t7.68-0.512 11.264 2.56 13.312 3.072q17.408 4.096 31.744 4.096 17.408 0 60.416-16.384 10.24-4.096 15.36 0 6.144 6.144-2.048 32.768zM191.488 651.008q0-22.528-28.672-22.528h-147.456l180.224 176.128q-4.096-125.952-4.096-153.6z" />
<glyph unicode="&#xf339;" glyph-name="uniF339" horiz-adv-x="973" d="M957.44 128.768q0-110.592-76.8-189.44t-183.296-78.848q-62.464 0-122.88 32.768-57.344-8.192-81.92-8.192-186.368 0-318.464 135.168t-132.096 327.68q0 47.104 10.24 92.16-36.864 61.44-36.864 137.216 0 109.568 75.776 188.416 74.752 77.824 184.32 77.824 76.8 0 139.264-40.96 34.816 8.192 77.824 8.192 187.392 0 317.44-135.168 131.072-136.192 131.072-327.68 0-50.176-10.24-98.304 26.624-61.44 26.624-120.832zM721.92 126.72q30.72 47.104 30.72 102.4 0 46.080-16.384 81.92-17.408 31.744-51.2 55.296-37.888 23.552-77.824 36.864-75.776 21.504-98.304 26.624-99.328 14.336-124.928 51.2-10.24 10.24-10.24 26.624 0 24.576 28.672 43.008 26.624 20.48 77.824 20.48t75.776-18.432q27.648-24.576 38.912-51.2 18.432-28.672 26.624-36.864 17.408-12.288 38.912-12.288 26.624 0 46.080 19.456t19.456 46.080q0 19.456-14.336 53.248-17.408 24.576-43.008 49.152-27.648 21.504-75.776 38.912-51.2 14.336-104.448 14.336-75.776 0-131.072-22.528-53.248-19.456-86.016-58.368t-32.768-97.28q0-54.272 28.672-92.16 33.792-39.936 77.824-57.344 49.152-22.528 118.784-36.864 9.216-2.048 81.92-20.48 29.696-10.24 47.104-28.672 18.432-14.336 18.432-43.008 0-38.912-37.888-60.416t-87.040-21.504q-73.728 0-102.4 40.96-25.6 46.080-26.624 47.104-7.168 23.552-24.576 40.96-20.48 14.336-40.96 14.336-26.624 0-46.080-17.92t-19.456-43.52q0-46.080 30.72-87.040t71.68-64.512q65.536-34.816 161.792-34.816 79.872 0 141.312 24.576 61.44 28.672 90.112 71.68z" />
<glyph unicode="&#xf342;" glyph-name="uniF342" horiz-adv-x="910" d="M804.864 618.24q90.112-44.032 90.112-165.888 0-133.12-112.64-215.040-109.568-81.92-313.344-81.92h-30.72q-17.408 0-33.28-12.8t-19.968-28.16l-36.864-159.744q-12.288-43.008-53.248-43.008h-108.544q-17.408 0-28.16 12.8t-6.656 30.208l6.144 24.576h69.632q17.408 0 33.28 13.824t19.968 29.184l36.864 159.744q10.24 40.96 53.248 40.96h30.72q200.704 0 313.344 81.92 112.64 84.992 112.64 215.040 0 57.344-22.528 98.304zM210.944 89.856q-2.048-15.36-18.432-29.184t-32.768-13.824h-110.592q-17.408 0-27.136 12.8t-5.632 30.208l153.6 661.504q10.24 40.96 53.248 40.96h229.376q76.8 0 129.024-8.192 59.392-13.312 96.256-34.816 35.84-23.552 59.392-63.488 20.48-38.912 20.48-98.304 0-133.12-112.64-215.040-109.568-81.92-311.296-81.92h-32.768q-16.384 0-32.768-12.8t-18.432-28.16zM301.056 472.832q-4.096-16.384 6.656-28.672t26.112-12.288h28.672q88.064 0 137.216 36.864 49.152 34.816 49.152 100.352 0 48.128-32.768 67.072t-94.208 18.944h-34.816q-43.008 0-53.248-40.96z" />
<glyph unicode="&#xf345;" glyph-name="uniF345" horiz-adv-x="973" d="M433.152 624.384l-405.504-370.688q-12.288 49.152-12.288 98.304 0 141.312 72.192 251.904t183.808 167.936q14.336-16.384 161.792-147.456zM680.96 497.408l-335.872 303.104q64.512 22.528 141.312 22.528 102.4 0 194.56-40.96v-284.672zM752.64 741.12q90.112-61.44 147.456-162.816t57.344-226.304q0-80.896-26.624-155.648h-178.176v544.768zM117.76 239.36l104.448 94.208v-370.688q-117.76 81.92-172.032 215.040 12.288 12.288 67.584 61.44zM293.888-78.080v202.752h604.16q-54.272-98.304-151.040-164.864t-217.6-78.848h-86.016q-88.064 11.264-149.504 40.96z" />
<glyph unicode="&#xf348;" glyph-name="uniF348" d="M50.176 175.872q0-4.096-10.24-4.096-6.144 0-10.24 4.096l-14.336 71.68 14.336 73.728q4.096 4.096 10.24 4.096 10.24 0 10.24-4.096l16.384-73.728zM154.624 136.96q0-8.192-12.288-8.192t-12.288 8.192l-12.288 110.592 12.288 169.984q0 8.192 12.288 8.192t12.288-8.192l14.336-169.984zM259.072 139.008q0-10.24-14.336-10.24t-14.336 8.192l-10.24 110.592 10.24 227.328q0 10.24 14.336 10.24t14.336-10.24l12.288-227.328zM363.52 139.008q0-10.24-16.384-10.24t-16.384 10.24l-8.192 108.544 8.192 229.376q0 10.24 16.384 10.24t16.384-10.24l10.24-229.376zM467.968 141.056q0-12.288-18.432-12.288-17.408 0-18.432 12.288l-6.144 106.496 6.144 262.144q5.12 14.336 18.432 14.336 18.432 0 18.432-14.336l8.192-262.144zM541.696 128.768q-14.336 0-14.336 14.336v405.504q0 10.24 12.288 14.336 37.888 14.336 86.016 14.336 90.112 0 156.672-59.904t74.752-144.896q23.552 10.24 51.2 10.24 52.224 0 91.648-37.888t39.424-89.088q0-53.248-38.912-91.136t-92.16-37.888z" />
<glyph unicode="&#xf34e;" glyph-name="uniF34E" d="M345.088 689.92q82.944 0 131.584-46.592t48.64-129.536q0-43.008-20.48-78.336t-51.2-42.496l-24.576-4.096q58.368 0 87.040-40.96 30.72-43.008 31.744-81.92v-40.96q0-53.248-19.456-95.744t-52.224-61.952q-54.272-32.768-110.592-38.912h-350.208v661.504h329.728zM334.848 425.728q31.744 0 43.52 18.432t11.776 59.392q0 24.576-9.216 44.544t-25.6 23.040l-10.24 2.048h-184.32v-147.456h174.080zM412.672 233.216q0 40.96-16.384 63.488-17.408 23.552-32.768 24.576l-18.432 2.048h-184.32v-176.128h176.128q75.776 0 75.776 86.016zM816.128 521.984q66.56 0 117.248-28.16t72.192-73.216q38.912-83.968 33.792-154.624l-2.048-30.72h-327.68q0-55.296 27.648-83.968t56.32-28.672l26.624-2.048q46.080 0 72.704 17.408t27.648 33.792l2.048 18.432h110.592q0-83.968-54.272-126.976-54.272-44.032-107.52-45.056l-55.296-2.048q-67.584 0-120.832 24.064t-77.824 65.024q-45.056 73.728-45.056 136.192v26.624q0 37.888 15.36 89.088t39.936 81.408 70.656 55.808q51.2 27.648 117.76 27.648zM916.48 323.328q0 32.768-20.48 66.56-9.216 15.36-30.72 25.6t-45.056 10.24q-43.008 0-71.68-25.6t-34.816-52.224l-6.144-24.576h208.896zM943.104 651.008v-79.872h-262.144v79.872h262.144z" />
</font>
</defs>
</svg>
